chaturbate juuljade42 2019-01-03 17:29:42

Click the screencaps for zoom.


Public cam show video of juuljade42 chaturbate started 2019-01-03 17:29:42

Untouched and best quality possible.

Size: 630.50MB

Duration: 28m:16s

Dimension: 1280x720

Framerate: 0FPS


User account required



Create an User account

Are you the model?


{
 "format":{
  "bit_rate":"3118523",
  "duration":"1696.001811",
  "filename":"chaturbate-juuljade42-1546536582.mp4",
  "format_long_name":"MPEG-TS (MPEG-2 Transport Stream)",
  "format_name":"mpegts",
  "nb_programs":1,
  "nb_streams":3,
  "probe_score":50,
  "size":"661127756",
  "start_time":"46.030522"
 },
 "streams":[
  {
   "avg_frame_rate":"0/0",
   "codec_long_name":"timed ID3 metadata",
   "codec_name":"timed_id3",
   "codec_tag":"0x20334449",
   "codec_tag_string":"ID3 ",
   "codec_type":"data",
   "disposition":{
    "attached_pic":0,
    "clean_effects":0,
    "comment":0,
    "default":0,
    "dub":0,
    "forced":0,
    "hearing_impaired":0,
    "karaoke":0,
    "lyrics":0,
    "original":0,
    "timed_thumbnails":0,
    "visual_impaired":0
   },
   "duration":"1696.001811",
   "duration_ts":152640163,
   "id":"0x102",
   "index":0,
   "r_frame_rate":"0/0",
   "start_pts":4142747,
   "start_time":"46.030522",
   "time_base":"1/90000"
  },
  {
   "avg_frame_rate":"30/1",
   "bits_per_raw_sample":"8",
   "chroma_location":"left",
   "codec_long_name":"H.264 / AVC / MPEG-4 AVC / MPEG-4 part 10",
   "codec_name":"h264",
   "codec_tag":"0x001b",
   "codec_tag_string":"[
    27
   ][
    0
   ][
    0
   ][
    0
   ]",
   "codec_time_base":"1/60",
   "codec_type":"video",
   "coded_height":720,
   "coded_width":1280,
   "display_aspect_ratio":"16:9",
   "disposition":{
    "attached_pic":0,
    "clean_effects":0,
    "comment":0,
    "default":0,
    "dub":0,
    "forced":0,
    "hearing_impaired":0,
    "karaoke":0,
    "lyrics":0,
    "original":0,
    "timed_thumbnails":0,
    "visual_impaired":0
   },
   "duration":"1696.000333",
   "duration_ts":152640030,
   "field_order":"progressive",
   "has_b_frames":0,
   "height":720,
   "id":"0x100",
   "index":1,
   "is_avc":"false",
   "level":31,
   "nal_length_size":"0",
   "pix_fmt":"yuv420p",
   "profile":"Main",
   "r_frame_rate":"30/1",
   "refs":1,
   "sample_aspect_ratio":"1:1",
   "start_pts":4142880,
   "start_time":"46.032000",
   "time_base":"1/90000",
   "width":1280
  },
  {
   "avg_frame_rate":"0/0",
   "bit_rate":"96468",
   "bits_per_sample":0,
   "channel_layout":"stereo",
   "channels":2,
   "codec_long_name":"AAC (Advanced Audio Coding)",
   "codec_name":"aac",
   "codec_tag":"0x000f",
   "codec_tag_string":"[
    15
   ][
    0
   ][
    0
   ][
    0
   ]",
   "codec_time_base":"1/44100",
   "codec_type":"audio",
   "disposition":{
    "attached_pic":0,
    "clean_effects":0,
    "comment":0,
    "default":0,
    "dub":0,
    "forced":0,
    "hearing_impaired":0,
    "karaoke":0,
    "lyrics":0,
    "original":0,
    "timed_thumbnails":0,
    "visual_impaired":0
   },
   "duration":"1695.962256",
   "duration_ts":152636603,
   "id":"0x101",
   "index":2,
   "profile":"LC",
   "r_frame_rate":"0/0",
   "sample_fmt":"fltp",
   "sample_rate":"44100",
   "start_pts":4142747,
   "start_time":"46.030522",
   "time_base":"1/90000"
  }
 ]
}

Feature coming soon.

Related videos

chaturbate juuljade42 2019-01-07 17:27:32
1h:3m:2s
1.39GB
1280x720
0FPS
chaturbate juuljade42 2019-01-07 16:46:00
29m:34s
666.07MB
1280x720
0FPS
chaturbate juuljade42 2019-01-05 07:27:41
29m:36s
666.32MB
1280x720
0FPS
chaturbate juuljade42 2019-01-04 20:40:46
15m:42s
356.07MB
1280x720
0FPS
chaturbate juuljade42 2019-01-04 20:10:44
7m:6s
159.15MB
1280x720
0FPS
chaturbate juuljade42 2019-01-04 18:18:17
1h:46m:4s
2.32GB
1280x720
0FPS
chaturbate juuljade42 2019-01-04 06:47:44
41m:24s
939.42MB
1280x720
0FPS
chaturbate juuljade42 2019-01-04 05:27:37
1h:3m:38s
1.37GB
1280x720
0FPS
chaturbate juuljade42 2019-01-04 05:10:17
8m:0s
158.10MB
1280x720
27FPS
chaturbate juuljade42 2019-01-04 04:39:27
28m:44s
589.07MB
1280x720
0FPS
chaturbate juuljade42 2019-01-04 04:31:24
5m:22s
104.37MB
1280x720
0FPS
chaturbate juuljade42 2019-01-03 18:19:15
37m:4s
833.38MB
1280x720
0FPS
chaturbate juuljade42 2019-01-03 17:24:52
3m:28s
75.73MB
1280x720
30FPS
chaturbate juuljade42 2019-01-03 16:57:00
22m:8s
406.82MB
1280x720
0FPS
chaturbate juuljade42 2019-01-03 04:56:30
30m:4s
653.81MB
1280x720
0FPS
chaturbate juuljade42 2019-01-03 04:51:11
3m:49s
17.57MB
480x360
29FPS
chaturbate juuljade42 2019-01-03 04:32:17
16m:14s
353.21MB
1280x720
0FPS
chaturbate juuljade42 2019-01-02 08:15:16
20m:10s
455.48MB
1280x720
0FPS
chaturbate juuljade42 2019-01-02 07:45:12
28m:8s
632.74MB
1280x720
0FPS
chaturbate juuljade42 2019-01-02 06:44:11
8m:10s
181.28MB
1280x720
0FPS
chaturbate juuljade42 2019-01-02 06:20:02
22m:20s
504.87MB
1280x720
0FPS
chaturbate juuljade42 2019-01-02 05:53:46
4m:26s
98.64MB
1280x720
30FPS
chaturbate juuljade42 2019-01-02 05:42:22
6m:32s
147.36MB
1280x720
30FPS
chaturbate juuljade42 2019-01-02 05:23:27
12m:28s
279.51MB
1280x720
0FPS