chaturbate juuljade42 2019-01-02 08:15:16

Click the screencaps for zoom.


Public cam show video of juuljade42 chaturbate started 2019-01-02 08:15:16

Untouched and best quality possible.

Size: 455.48MB

Duration: 20m:10s

Dimension: 1280x720

Framerate: 0FPS


User account required



Create an User account

Are you the model?


{
 "format":{
  "bit_rate":"3157736",
  "duration":"1210.004533",
  "filename":"chaturbate-juuljade42-1546416916.mp4",
  "format_long_name":"MPEG-TS (MPEG-2 Transport Stream)",
  "format_name":"mpegts",
  "nb_programs":1,
  "nb_streams":3,
  "probe_score":50,
  "size":"477609488",
  "start_time":"108.027800"
 },
 "streams":[
  {
   "avg_frame_rate":"0/0",
   "codec_long_name":"timed ID3 metadata",
   "codec_name":"timed_id3",
   "codec_tag":"0x20334449",
   "codec_tag_string":"ID3 ",
   "codec_type":"data",
   "disposition":{
    "attached_pic":0,
    "clean_effects":0,
    "comment":0,
    "default":0,
    "dub":0,
    "forced":0,
    "hearing_impaired":0,
    "karaoke":0,
    "lyrics":0,
    "original":0,
    "timed_thumbnails":0,
    "visual_impaired":0
   },
   "duration":"1210.004533",
   "duration_ts":108900408,
   "id":"0x102",
   "index":0,
   "r_frame_rate":"0/0",
   "start_pts":9722502,
   "start_time":"108.027800",
   "time_base":"1/90000"
  },
  {
   "avg_frame_rate":"30/1",
   "bits_per_raw_sample":"8",
   "chroma_location":"left",
   "codec_long_name":"H.264 / AVC / MPEG-4 AVC / MPEG-4 part 10",
   "codec_name":"h264",
   "codec_tag":"0x001b",
   "codec_tag_string":"[
    27
   ][
    0
   ][
    0
   ][
    0
   ]",
   "codec_time_base":"1/60",
   "codec_type":"video",
   "coded_height":720,
   "coded_width":1280,
   "display_aspect_ratio":"16:9",
   "disposition":{
    "attached_pic":0,
    "clean_effects":0,
    "comment":0,
    "default":0,
    "dub":0,
    "forced":0,
    "hearing_impaired":0,
    "karaoke":0,
    "lyrics":0,
    "original":0,
    "timed_thumbnails":0,
    "visual_impaired":0
   },
   "duration":"1210.000333",
   "duration_ts":108900030,
   "field_order":"progressive",
   "has_b_frames":0,
   "height":720,
   "id":"0x100",
   "index":1,
   "is_avc":"false",
   "level":31,
   "nal_length_size":"0",
   "pix_fmt":"yuv420p",
   "profile":"Main",
   "r_frame_rate":"30/1",
   "refs":1,
   "sample_aspect_ratio":"1:1",
   "start_pts":9722880,
   "start_time":"108.032000",
   "time_base":"1/90000",
   "width":1280
  },
  {
   "avg_frame_rate":"0/0",
   "bit_rate":"93023",
   "bits_per_sample":0,
   "channel_layout":"stereo",
   "channels":2,
   "codec_long_name":"AAC (Advanced Audio Coding)",
   "codec_name":"aac",
   "codec_tag":"0x000f",
   "codec_tag_string":"[
    15
   ][
    0
   ][
    0
   ][
    0
   ]",
   "codec_time_base":"1/44100",
   "codec_type":"audio",
   "disposition":{
    "attached_pic":0,
    "clean_effects":0,
    "comment":0,
    "default":0,
    "dub":0,
    "forced":0,
    "hearing_impaired":0,
    "karaoke":0,
    "lyrics":0,
    "original":0,
    "timed_thumbnails":0,
    "visual_impaired":0
   },
   "duration":"1209.945389",
   "duration_ts":108895085,
   "id":"0x101",
   "index":2,
   "profile":"LC",
   "r_frame_rate":"0/0",
   "sample_fmt":"fltp",
   "sample_rate":"44100",
   "start_pts":9722502,
   "start_time":"108.027800",
   "time_base":"1/90000"
  }
 ]
}

Feature coming soon.

Related videos

chaturbate juuljade42 2019-01-04 06:47:44
41m:24s
939.42MB
1280x720
0FPS
chaturbate juuljade42 2019-01-04 05:27:37
1h:3m:38s
1.37GB
1280x720
0FPS
chaturbate juuljade42 2019-01-04 05:10:17
8m:0s
158.10MB
1280x720
27FPS
chaturbate juuljade42 2019-01-04 04:39:27
28m:44s
589.07MB
1280x720
0FPS
chaturbate juuljade42 2019-01-04 04:31:24
5m:22s
104.37MB
1280x720
0FPS
chaturbate juuljade42 2019-01-03 18:19:15
37m:4s
833.38MB
1280x720
0FPS
chaturbate juuljade42 2019-01-03 17:29:42
28m:16s
630.50MB
1280x720
0FPS
chaturbate juuljade42 2019-01-03 17:24:52
3m:28s
75.73MB
1280x720
30FPS
chaturbate juuljade42 2019-01-03 16:57:00
22m:8s
406.82MB
1280x720
0FPS
chaturbate juuljade42 2019-01-03 04:56:30
30m:4s
653.81MB
1280x720
0FPS
chaturbate juuljade42 2019-01-03 04:51:11
3m:49s
17.57MB
480x360
29FPS
chaturbate juuljade42 2019-01-03 04:32:17
16m:14s
353.21MB
1280x720
0FPS
chaturbate juuljade42 2019-01-02 07:45:12
28m:8s
632.74MB
1280x720
0FPS
chaturbate juuljade42 2019-01-02 06:44:11
8m:10s
181.28MB
1280x720
0FPS
chaturbate juuljade42 2019-01-02 06:20:02
22m:20s
504.87MB
1280x720
0FPS
chaturbate juuljade42 2019-01-02 05:53:46
4m:26s
98.64MB
1280x720
30FPS
chaturbate juuljade42 2019-01-02 05:42:22
6m:32s
147.36MB
1280x720
30FPS
chaturbate juuljade42 2019-01-02 05:23:27
12m:28s
279.51MB
1280x720
0FPS
chaturbate juuljade42 2019-01-02 05:07:07
10m:56s
246.83MB
1280x720
0FPS
chaturbate juuljade42 2019-01-01 19:24:14
7m:40s
35.25MB
480x360
29FPS
chaturbate juuljade42 2018-12-30 09:05:37
16m:40s
349.52MB
1280x720
0FPS
chaturbate juuljade42 2018-12-30 08:46:02
11m:4s
184.03MB
1280x720
0FPS
chaturbate juuljade42 2018-12-30 08:01:09
38m:10s
866.96MB
1280x720
0FPS
chaturbate juuljade42 2018-12-30 07:07:57
33m:56s
770.91MB
1280x720
0FPS